[幸福/毒楼 Happiness][全12集][韩语外挂中英字.无水印][WEB/MP4][1080P][AppleTor]

admin 9月前 297


◎译 名 幸福 / Happiness / 毒楼

◎片 名 해피니스

◎年 代 2021

◎产 地 韩国

◎类 别 剧情 / 悬疑 / 惊悚

◎语 言 韩语

◎上映日期 2021-11-05(韩国)

◎IMDb评分 8.6/10 from 856 users

◎IMDb链接 https://www.imdb.com/title/tt14979052

◎豆瓣评分 6.6/10 from 12868 users

◎豆瓣链接 https://movie.douban.com/subject/35377080

◎集 数 12

◎片 长 65分钟

◎导 演 安吉镐 Ahn Gil-ho

◎编 剧 韩相云 Han Sang-Woon

◎主 演 韩孝周 Hyo-joo Han

朴炯植 Hyung-Shik Park

赵宇镇 Woo-jin Jo

朴昼熙 Joo-hee Park

李柱胜 Joo-seung Lee

车顺裴 Cha Soon-bae

李志夏 Ji-ha Lee

白贤镇 Hyeon-jin Baek

朴亨洙 Hyoung-soo Park

朴喜本 Hee-bon Park

文艺媛 Ye-won Moon

金英熊 Young-woong Kim

罗哲 Na Chul

刘智妍 Yoo Ji-yeon

韩俊宇 Joon Woo Han

李奎炯 Kyu-hyung Lee

徐贤哲 Hyun-chul Seo

郑载恩 Jae Eun Jeong

金义城 Eui-sung Kim

李俊赫 Lee Joon-Hyuk

裴海善 Hae-sun Bae

全锡灿 Suk-chan Jun

姜汉泉 Han-saem Kang

俞智妍 유지연

白珠熙 JuHee Baek

李珠实 Ju-shil Lee

金周妍 김주연

洪顺昌 Soon-chang Hong

郑敏圣 Min-sung Jung

李基英 Ki-young Lee

朴基龙 Ki-ryung Park

宋智宇 Song Ji-Woo

韩多率 Han Da Sol

南美贞 Nam Mi-Jung

朱钟赫 Joo Jong-Hyuk

郑云善 Jung Woon-sun


◎标 签 丧尸 | 韩剧 | 韩国 | 惊悚 | 悬疑 | 2021 | 电视剧 | 剧情


◎简 介


该剧是以新冠疫情结束的近未来为背景的电视剧,新型感染病“狂人病”流行的假设下,直接展现人类的欲望和恐怖,那些被赋予意义的价值们在受到生命威胁时是否能够毫无变化地维持下去,即便如此也不变化的价值究竟是什么,这是抛出这一提问的作品。



Video

ID : 1

Format : AVC

Format/Info : Advanced Video Codec

Format profile : High@L4

Format settings : CABAC / 1 Ref Frames

Format settings, CABAC : Yes

Format settings, Reference frames : 1 frame

Format settings, GOP : M=1, N=60

Codec ID : avc1

Codec ID/Info : Advanced Video Coding

Duration : 1 h 12 min

Bit rate mode : Variable

Bit rate : 4 843 kb/s

Maximum bit rate : 5 500 kb/s

Width : 1 920 pixels

Height : 1 080 pixels

Display aspect ratio : 16:9

Frame rate mode : Constant

Frame rate : 29.970 (30000/1001) FPS

Color space : YUV

Chroma subsampling : 4:2:0

Bit depth : 8 bits

Scan type : Progressive

Bits/(Pixel*Frame) : 0.078

Stream size : 2.47 GiB (97%)

Encoded date : UTC 2021-11-22 08:45:27

Tagged date : UTC 2021-11-22 08:45:27

Codec configuration box : avcC

Audio

ID : 2

Format : AAC LC

Format/Info : Advanced Audio Codec Low Complexity

Codec ID : mp4a-40-2

Duration : 1 h 12 min

Bit rate mode : Constant

Bit rate : 128 kb/s

Channel(s) : 2 channels

Channel layout : L R

Sampling rate : 48.0 kHz

Frame rate : 46.875 FPS (1024 SPF)

Compression mode : Lossy

Stream size : 66.8 MiB (3%)

Default : Yes

Alternate group : 1

Encoded date : UTC 2021-11-22 08:45:27

Tagged date : UTC 2021-11-22 08:45:27


种子请使用专业BT下载工具:

UT,Bitcomet,qBittorrent,Xdown开启上传后再下载!!!

使用迅雷或度盘离线可能会没速度!!!

解压请使用官方原版WinRAR,使用破解版或者好压等软件可能会出错


资源看回复楼层


剧情 惊悚 悬疑


最新回复 (1)
返回